Dragon Ball Super S04E22

Posted By: Tavaz
SD / HDTV IMDb
Dragon Ball Super S04E22

Dragon Ball Super S04E22
HDTV | MKV | 720x404 | English | H264 @ 550 kbps | AAC @ 117 kbps | 21 min 56 s | 105 MiB
Subtitles: English
Genre: Animation, Mystery

Set just after the events of the Buu Saga of Dragon Ball Z, a deadly threat awakens once more. People lived in peace without knowing who the true heroes were during the devastating battle against Majin Buu. The powerful Dragon Balls have prevented any permanent damage, and our heroes also continue to live a normal life. In the far reaches of the universe, however, a powerful being awakens early from his slumber, curious about a prophecy of his defeat.

Join Gokuu, Piccolo, Vegeta, Gohan, and the rest of the Dragon Ball crew as they tackle the strongest opponent they have ever faced. Beerus, the god of destruction, now sets his curious sights on Earth. Will the heroes save the day and prevent earth's destruction? Or will the whims of a bored god prove too powerful for the Saiyans? Gokuu faces impossible odds once more and fights for the safety of his loved ones and the planet.

dragon.ball.super.s04e22.dubbed.hdtv.x264-w4f.mkv (105.2 MB)



General
Unique ID : 217687947230799834296714091040182339036 (0xA3C52C71BB282BE69D1262B0033B85DC)
Complete name : ./dragon.ball.super.s04e22.dubbed.hdtv.x264-w4f.mkv
Format : Matroska
Format version : Version 4 / Version 2
File size : 105 MiB
Duration : 21 min 56 s
Overall bit rate : 670 kb/s
Encoded date : UTC 2018-06-24 05:00:07
Writing application : mkvmerge v9.7.1 ('Pandemonium') 64bit
Writing library : libebml v1.3.4 + libmatroska v1.4.5

Video
ID : 1
Format : AVC
Format/Info : Advanced Video Codec
Format profile : High@L3.1
Format settings : CABAC / 10 Ref Frames
Format settings, CABAC : Yes
Format settings, RefFrames : 10 frames
Codec ID : V_MPEG4/ISO/AVC
Duration : 21 min 56 s
Bit rate : 551 kb/s
Width : 720 pixels
Height : 404 pixels
Display aspect ratio : 16:9
Frame rate mode : Constant
Frame rate : 23.976 (24000/1001) FPS
Color space : YUV
Chroma subsampling : 4:2:0
Bit depth : 8 bits
Scan type : Progressive
Bits/(Pixel*Frame) : 0.079
Stream size : 86.4 MiB (82%)
Writing library : x264 core 155 r2901 7d0ff22
Encoding settings : cabac=1 / ref=10 / deblock=1:1:1 / analyse=0x3:0x113 / me=hex / subme=8 / psy=1 / psy_rd=0.40:0.00 / mixed_ref=1 / me_range=16 / chroma_me=1 / trellis=2 / 8x8dct=1 / cqm=0 / deadzone=21,11 / fast_pskip=1 / chroma_qp_offset=-2 / threads=13 / lookahead_threads=2 / sliced_threads=0 / nr=0 / decimate=1 / interlaced=0 / bluray_compat=0 / constrained_intra=0 / bframes=5 / b_pyramid=2 / b_adapt=1 / b_bias=0 / direct=3 / weightb=1 / open_gop=0 / weightp=2 / keyint=250 / keyint_min=23 / scenecut=40 / intra_refresh=0 / rc_lookahead=50 / rc=crf / mbtree=1 / crf=19.0 / qcomp=0.60 / qpmin=0 / qpmax=69 / qpstep=4 / ip_ratio=1.40 / aq=1:0.60
Default : Yes
Forced : No
Color range : Limited
Matrix coefficients : BT.709

Audio
ID : 2
Format : AAC
Format/Info : Advanced Audio Codec
Format profile : LC
Codec ID : A_AAC-2
Duration : 21 min 56 s
Bit rate : 117 kb/s
Channel(s) : 2 channels
Channel positions : Front: L R
Sampling rate : 48.0 kHz
Frame rate : 46.875 FPS (1024 SPF)
Compression mode : Lossy
Delay relative to video : 20 ms
Stream size : 18.4 MiB (17%)
Language : English
Default : Yes
Forced : No

Text
ID : 3
Format : UTF-8
Codec ID : S_TEXT/UTF8
Codec ID/Info : UTF-8 Plain Text
Duration : 21 min 40 s
Bit rate : 135 b/s
Count of elements : 508
Stream size : 21.4 KiB (0%)
Language : English
Default : No
Forced : No





Dragon Ball Super S04E22


Dragon Ball Super 			  			     		  		  	 			   		   	  		  		  			  	  	 			   		   	  			     		   	  	 			   		 		   			  				 S04E22


Dragon Ball Super S04E22


Dragon Ball Super S04E22


Dragon Ball Super S04E22

All episodes

SitemapDaniel West | UNA PREGHIERA PRIMA DELL’ALBA | Rabba Ve (From "High End Yaariyaan") - Single - B.Praak